วันจันทร์ที่ 30 พฤศจิกายน พ.ศ. 2558

{จัดเต็ม!!} โน้ต อุดม แต้พานิช / เดี่ยวไมโครโฟน 1-10 (2538-2556) [MINI HD 720P MP4][เสียงไทย]

ดี่ยวไมโครโฟน 1-10 [2538-2556] (รื้อฟื้นความหลัง หลังดูเดี่ยวไมโครโฟน 11 มัดรวมการแสดงสดพูดตลกคนเดียวบนเวที โดย อุดม แต้พานิช) [MINIHD 720P] [Encode.H.264.AAC.MP4.720P.] [เสียง:ไทย]



 


...เดี่ยวไมโครโฟน เป็นการแสดงสดพูดตลกคนเดียวบนเวที โดย อุดม แต้พานิช ทั้งการกำกับเวทีและเขียนบท ดำเนินงานในชื่อบริษัท พอดีพานิช จำกัด เป็นผลงานที่สร้างชื่อให้กับอุดม แต้พานิช มีการแสดงเดี่ยวไมโครโฟนมาแล้ว 10 ครั้ง ตั้งแต่ปี 2538
    เดี่ยวไมโครโฟนเกิดขึ้นหลังอุดมร่วมเป็นพิธีกรของรายการยุทธการขยับเหงือกประมาณ 4 ปี อยากลองเล่นตลกคนเดียว ซึ่งมีสามคนพูดกับอุดมเกี่ยวกับการเล่นตลกของเขา ล้วนแต่บอกให้เขาไปทำสแตนด์อัป คอมเมดี เขาสงสัยใคร่รู้ วันหนึ่ง อุดมรู้ว่ามีสแตนด์อัพคอมเมดีออกอากาศ มีฝรั่งกำลังเล่าเรื่องบางอย่างโดยมีซับไตเติลภาษาไทยขึ้น วันหนึ่ง อุดมมีเพื่อนไปสหรัฐอเมริกา ก็ได้ฝากซื้อสแตนด์อัพคอมเมดีมา แล้วอุดมจึงเริ่มเขียนบท แล้วลองไปเล่นกับนักศึกษาตามมหาลัย
    ต่อมา อุดมเริ่มทำเดี่ยวไมโครโฟนประมาณ 2 ปี ซึ่งมีเงินทุนอยู่ 4 แสนบาท ซึ่งเปิดแสดง 3 รอบ เปิดการแสดงเมื่อวันที่ 23 สิงหาคม พ.ศ. 2538 เวลาบ่าย 2 โมง แสดงที่ หอประชุมเมืองไทยประกันชีวิต อาคารเมืองไทย-ภัทร คอมเพล็กซ์ ซึ่งประสบความสำเร็จเป็นอย่างมาก ผลตอบรับออกมาดี
การแสดงเดี่ยวไมโครโฟน
ครั้งที่ 1 (เดี่ยวไมโครโฟน) 23-25 สิงหาคม พ.ศ. 2538 เปิดแสดง 3 รอบ แสดงที่ หอประชุมเมืองไทยประกันชีวิต อาคารเมืองไทย-ภัทร คอมเพล็กซ์ ความจุ 450 ที่นั่ง
ครั้งที่ 2 (อุดม โชว์ห่วย) พ.ศ. 2539 เปิดแสดง 14 รอบ แสดงที่ หอประชุมเมืองไทยประกันชีวิต ความจุ 450 ที่นั่ง
ครั้งที่ 3 (อุดม การช่าง) พ.ศ. 2540 เปิดแสดง 22 รอบ แสดงที่ อิมพีเรียล ลาดพร้าว
ครั้งที่ 4 (เดี่ยว 4) พ.ศ. 2542 เปิดแสดง 28 รอบ แสดงที่ เอ็มซีซี ฮอลล์ เดอะมอลล์ บางกะปิ
ครั้งที่ 5 (ฉายเดี่ยว) พ.ศ. 2545 เปิดแสดง 30 รอบ แสดงที่ โรงภาพยนตร์สกาล่า ความจุ 1,000 ที่นั่ง
ครั้งที่ 6 (ตูดหมึก) พ.ศ. 2546 เปิดแสดง 43 รอบ แสดงที่ โรงภาพยนตร์สกาล่า ความจุ 1,000 ที่นั่ง
ครั้งที่ 7 (เดี่ยว 7 หรือ ร้าน เซเว่น เดี่ยว) 1 กุมภาพันธ์ - 2 มีนาคม พ.ศ. 2551 เปิดแสดง 41 รอบ (ไทย 39 รอบ, ซิดนีย์ 2 รอบ) แสดงที่ โรงภาพยนตร์สกาล่า ความจุ 1,000 ที่นั่ง
ครั้งที่ 7.5 (เชียงใหม่ม่วนขนาด หรือ ร้าน เซเว่นพอยท์ไฟว์ เดี่ยว) 19-20 กรกฎาคม พ.ศ. 2551 เปิดแสดง 3 รอบ แสดงที่ กาดสวนแก้ว เชียงใหม่ ความจุ 2,000 ที่นั่ง
ครั้งที่ 8 (เดี่ยว 8) 4-16 กุมภาพันธ์ พ.ศ. 2553 เปิดแสดง 13 รอบ แสดงที่ รอยัลพารากอนฮอลล์ สยามพารากอน ความจุ 3,108 ที่นั่ง
ครั้งที่ 9 (เดี่ยว 9: สนุก สันติ อหิงสา) 5-18 สิงหาคม พ.ศ. 2554 เปิดแสดง 18 รอบ แสดงที่ รอยัลพารากอนฮอลล์ สยามพารากอน ความจุ 3,108 ที่นั่ง
ครั้งที่ 9.5 (สนุก สันติ อหิงสา ไม่แพ้กัน) 16-20 กันยายน พ.ศ. 2554 เปิดแสดง 5 รอบ แสดงที่ โรงละครกาดสวนแก้ว เชียงใหม่ ความจุ 2,000 ที่นั่ง
ครั้งที่ 10 15-31 มีนาคม พ.ศ. 2556 ทำการแสดง 17 รอบ ณ รอยัลพารากอนฮอลล์ สยามพารากอน ความจุ 3,108 ที่นั่ง


เดี่ยวไมโครโฟน 1-10
กำกับ อุดม แต้พานิช
อำนวยการสร้าง บริษัท พอดีพานิช จำกัด
เขียน อุดม แต้พานิช
นำแสดง อุดม แต้พานิช
ฉาย ตั้งแต่ พ.ศ. 2538-2556
ภาษา ไทย

General
Format                           : MPEG-4
Format profile                   : Base Media
Codec ID                         : isom
File size                        : 2.52 GiB
Duration                         : 4h 3mn
Overall bit rate                 : 1 480 Kbps
Writing application              : Lavf54.63.104

Video
ID                               : 1
Format                           : AVC
Format/Info                      : Advanced Video Codec
Format profile                   : Main@L3.1
Format settings, CABAC           : Yes
Format settings, ReFrames        : 3 frames
Format settings, GOP             : M=1, N=30
Codec ID                         : avc1
Codec ID/Info                    : Advanced Video Coding
Duration                         : 4h 3mn
Bit rate mode                    : Variable
Bit rate                         : 1 349 Kbps
Width                            : 1 280 pixels
Height                           : 720 pixels
Display aspect ratio             : 16:9
Frame rate mode                  : Constant
Frame rate                       : 25.000 fps
Color space                      : YUV
Chroma subsampling               : 4:2:0
Bit depth                        : 8 bits
Scan type                        : Progressive
Bits/(Pixel*Frame)               : 0.059
Stream size                      : 2.29 GiB (91%)

Audio
ID                               : 2
Format                           : AAC
Format/Info                      : Advanced Audio Codec
Format profile                   : LC
Codec ID                         : 40
Duration                         : 4h 3mn
Bit rate mode                    : Constant
Bit rate                         : 126 Kbps
Channel(s)                       : 2 channels
Channel positions                : Front: L R
Sampling rate                    : 44.1 KHz
Compression mode                 : Lossy
Stream size                      : 219 MiB (8%)
เครดิตyostorn



เดี่ยวไมโครโฟน_1.mp4
http://www.rabbitfile.com/dl.php?f=Ds3137aZ8sKX

เดี่ยวไมโครโฟน_2.mp4
http://www.rabbitfile.com/dl.php?f=ZHbc6eaZ8sjK

เดี่ยวไมโครโฟน_3.mp4
http://www.rabbitfile.com/dl.php?f=0o12b3aZ8sYo

เดี่ยวไมโครโฟน_4.mp4
http://www.rabbitfile.com/dl.php?f=Gfc943aZ8tc3

เดี่ยวไมโครโฟน_5.mp4
http://www.rabbitfile.com/dl.php?f=aE484caZ8sxR

เดี่ยวไมโครโฟน_6.mp4
http://www.rabbitfile.com/dl.php?f=Ug4295aZ8sEi

เดี่ยวไมโครโฟน_7.mp4
http://www.rabbitfile.com/dl.php?f=jaa5acaZ8tqo

เดี่ยวไมโครโฟน_7.5.mp4
http://www.rabbitfile.com/dl.php?f=8f67bbaZ8tXV

เดี่ยวไมโครโฟน_8.mp4
http://www.rabbitfile.com/dl.php?f=ul9e96aZ8sqY

เดี่ยวไมโครโฟน_9.mp4
http://www.rabbitfile.com/dl.php?f=oB922caZ8t64

เดี่ยวไมโครโฟน_9.5.mp4
http://www.rabbitfile.com/dl.php?f=xka619aZ8tQm

เดี่ยวไมโครโฟน_10.mp4
http://www.rabbitfile.com/dl.php?f=SA6dfcaZ8sSK

ไม่มีความคิดเห็น:

แสดงความคิดเห็น